Torrent Hash - Hash of all existing torrents
Please, pay attention to the fact that you are about to download the torrent NOT from torhash.com
torhash.com is just a torrent search engine, no torrents are hosted here.

Catwoman (2004) - DVDRip - MP3 - ENG

Infohash:

06A88595615CC421670F2F579D7357559B3FC4A4

Type:

Movies

Title:

Catwoman (2004) - DVDRip - MP3 - ENG

Category:

Video/Movies

Uploaded:

2008-08-15 (by 206andy206)

Info:

http://www.imdb.com/title/tt0327554/

Description:

IMDB: http://www.imdb.com/title/tt0327554/ User Rating: 3.2/10 (25,500 votes) Release Date: 13 August 2004 (UK) Genre: Action | Crime Plot: A shy woman, endowed with the speed, reflexes, and senses of a cat, walks a thin line between criminal and hero, even as a detective doggedly pursues her, fascinated by both of her personas. Halle Berry ... Patience Phillips / Catwoman Benjamin Bratt ... Tom Lone Sharon Stone ... Laurel Hedare Lambert Wilson ... George Hedare Frances Conroy ... Ophelia General Complete name : D:DVDCatwomanCatwoman.avi Format : AVI Format/Info : Audio Video Interleave File size : 703 MiB Duration : 1h 39mn Overal bit rate : 984 Kbps Writing application : VirtualDubMod 1.5.4.1 (build 2178/release) Writing library : VirtualDubMod build 2178/release IAS1 : English Video Format : MPEG-4 Visual Format profile : Streaming [email protected] Format settings, BVOP : Yes Format settings, QPel : No Format settings, GMC : No warppoints Format settings, Matrix : Custom Codec ID : XVID Codec ID/Hint : XviD Duration : 1h 39mn Bit rate : 849 Kbps Width : 608 pixels Height : 256 pixels Display aspect ratio : 2.35 Frame rate : 25.000 fps Resolution : 8 bits Colorimetry : 4:2:0 Scan type : Progressive Bits/(Pixel*Frame) : 0.218 Stream size : 607 MiB (86%) Writing library : XviD 1.1.2 (UTC 2006-11-01) Audio Format : MPEG Audio Format version : Version 1 Format profile : Layer 3 Codec ID : 55 Codec ID/Hint : MP3 Duration : 1h 39mn Bit rate mode : Constant Bit rate : 128 Kbps Minimum bit rate : 128 Kbps Channel(s) : 2 channels Sampling rate : 48.0 KHz Resolution : 16 bits Stream size : 91.5 MiB (13%) Writing library : LAME3.97 Encoding settings : CBR Trackers: http://www.torrent-downloads.to:5869/announce http://open.tracker.thepiratebay.se:80/announce http://tpb.tracker.thepiratebay.se:80/announce http://vip.tracker.thepiratebay.se/announce Info Hash: 06A88595615CC421670F2F579D7357559B3FC4A4

Files count:

1

Size:

703.47 Mb

Trackers:

udp://tracker.openbittorrent.com:80
udp://open.demonii.com:1337
udp://tracker.coppersurfer.tk:6969
udp://exodus.desync.com:6969

Comments:

moshedemartian (2008-11-23)

Thank you.

watbol (2009-03-24)

Keep up the Good Werk¡!
------------------------------
¿¿¿-:·}~ «-{Watbol}-» ©2000

g0rdyb3ya (2010-02-24)

ty i luv dis movie, she mad crazii lol.... God blezz!

jayrew21 (2010-07-30)

Thanks bro hope you keep up with some of the latest also

inri13666 (2010-12-21)

subtitles here :
http://www.opensubtitles.org/en/subtitles/4017223/catwoman-en


Maxjmus (2011-04-25)

seed please

djay47 (2011-06-20)

thanks anyway i'll pass though, best way to get a movie rated under 3 is to put halle berry in it

JohnGrisham01 (2011-07-18)

djay47: You fail

n4sar (2011-11-04)

thnk u 4 this

evilg0d (2012-03-03)

Thank you for sharing this. I really appreciate it.

Files:

1. Catwoman (2004) - DVDRip - MP3 - ENG/Catwoman (2004) - DVDRip - MP3 - ENG.nfo 10.54 Kb
2. Catwoman (2004) - DVDRip - MP3 - ENG/Catwoman.avi 703.46 Mb
3. Catwoman (2004) - DVDRip - MP3 - ENG/Tracked_by_Demonoid_com.txt 34 bytes

Menu

Torrent