Torrent Hash - Hash of all existing torrents
Please, pay attention to the fact that you are about to download the torrent NOT from torhash.com
torhash.com is just a torrent search engine, no torrents are hosted here.

How to train your dragon HDTV (PSP + Ipod touch + Zune)

Infohash:

A22679037F779A896E5D9EDDA879F800F8DA37BF

Type:

Video TV

Title:

How to train your dragon HDTV (PSP + Ipod touch + Zune)

Category:

Video/Handheld

Uploaded:

2010-07-20 (by on.off.on )

Description:

How to Train Your Dragon 2-D http://www.imdb.com/title/tt0892769/ Source : How.To.Train.Your.Dragon.2-D.HDTV.480p.RiP.XViD-IMAGiNE Info: ID : 1 Format : AVC Format/Info : Advanced Video Codec Format profile : [email protected] /* */ Format settings, CABAC : No Format settings, ReFrames : 3 frames Format settings, GOP : N=1 Codec ID : avc1 Codec ID/Info : Advanced Video Coding Duration : 1h 30mn Bit rate mode : Variable Bit rate : 395 Kbps Width : 480 pixels Height : 208 pixels Display aspect ratio : 2.35:1 Frame rate mode : Variable Frame rate : 29.970 fps Minimum frame rate : 29.960 fps Maximum frame rate : 29.970 fps Color space : YUV Chroma subsampling : 4:2:0 Bit depth : 8 bits Scan type : Progressive Bits/(Pixel*Frame) : 0.132 Stream size : 254 MiB (75%) Writing library : x264 core 79 ID : 2 Format : AAC Format/Info : Advanced Audio Codec Format version : Version 4 Format profile : LC Format settings, SBR : No Codec ID : 40 Duration : 1h 30mn Bit rate mode : Variable Bit rate : 128 Kbps Maximum bit rate : 178 Kbps Channel(s) : 2 channels Channel positions : Front: L R Sampling rate : 48.0 KHz Stream size : 82.2 MiB (24%) Screens: http://img838.imageshack.us/img838/6279/howtotrainyourdragonhdt.jpg This is like a R5 release.... PLEASE LET THE TORRENT SEED AND SHARE IT WITH ALL YOU KNOW! Let me know what I can do to be your trusted source of Handheld videos. http://thepiratebay.se/user/on.off.on/ -OOO

Files count:

1

Size:

338.64 Mb

Trackers:

udp://tracker.openbittorrent.com:80
udp://open.demonii.com:1337
udp://tracker.coppersurfer.tk:6969
udp://exodus.desync.com:6969

Comments:

 on.off.on (2010-07-20)

How to train ur hamster... sweet lol

frod27 (2010-07-24)

-OOO can you upload this foreign film which is Rudo y Cursi
http://www.imdb.com/title/tt0405393/
Source:
http://thepiratebay.se/torrent/4717898/Rudo_y_Cursi_%28Audio_Latino%29_2009_DVDRIP_Xvid-Mp3

English Subtitles:
http://www.subtitlesource.org/subs/51163/Rudo.y.Cursi.%28Audio.Latino%29.2009.DVDRIP.Xvid-Mp3

(The subtitles are a bit of, for instance like 1100 ms off I would appreciated if you would fix that)

gangsterazz (2010-07-24)

gratzz on yo skull !
great upload you the maaaynnn

torrentsrfun24 (2010-07-25)

random requests, could you do housesitter and miss congeniality? thanks!

Menu

Torrent